<?xml version="1.0" standalone="no"?>
<!DOCTYPE svg PUBLIC "-//W3C//DTD SVG 1.1//EN" "http://www.w3.org/Graphics/SVG/1.1/DTD/svg11.dtd" >
<svg>
<metadata>
Created by FontForge 20090622 at Fri May 25 12:14:08 2018
 By deploy user
&#194;&#169; Dutch Design: Albert-Jan Pool, 1995. Published by FontShop International FontFont release 15
</metadata>
<defs>
<font id="DIN" horiz-adv-x="522" >
  <font-face 
    font-family="DIN"
    font-weight="400"
    font-stretch="normal"
    units-per-em="1000"
    panose-1="0 0 4 0 0 0 0 0 0 0"
    ascent="800"
    descent="-200"
    x-height="492"
    cap-height="712"
    bbox="-104 -226 1115 985"
    underline-thickness="51"
    underline-position="-114"
    unicode-range="U+0020-U+F002"
  />
<missing-glyph horiz-adv-x="500" 
d="M63 0v774h375v-774h-375zM125 63h250v649h-250v-649z" />
    <glyph glyph-name=".notdef" horiz-adv-x="500" 
d="M63 0v774h375v-774h-375zM125 63h250v649h-250v-649z" />
    <glyph glyph-name=".null" horiz-adv-x="0" 
 />
    <glyph glyph-name="nonmarkingreturn" horiz-adv-x="249" 
 />
    <glyph glyph-name="space" unicode=" " horiz-adv-x="249" 
 />
    <glyph glyph-name="exclam" unicode="!" horiz-adv-x="316" 
d="M215 712l-11 -512h-62l-10 512h83zM216 0h-86v84h86v-84z" />
    <glyph glyph-name="quotedbl" unicode="&#x22;" horiz-adv-x="423" 
d="M335 542h-79v170h79v-170zM167 542h-79v170h79v-170z" />
    <glyph glyph-name="numbersign" unicode="#" horiz-adv-x="653" 
d="M602 432h-96l-23 -141h89v-64h-99l-36 -227h-74l36 227h-160l-35 -227h-74l36 227h-89v64h100l23 141h-92v66h101l34 215h75l-35 -215h159l34 215h73l-34 -215h87v-66zM432 432h-159l-23 -141h159z" />
    <glyph glyph-name="dollar" unicode="$" horiz-adv-x="596" 
d="M540 196q0 -86 -59 -139.5t-159 -60.5v-110h-60v108q-132 6 -220 94l52 52q73 -73 172 -77v265l-20 2q-77 8 -131 55t-54 132t54 139t147 61v89h60v-89q106 -5 186 -77l-49 -49q-61 55 -140 60v-259l31 -5q87 -14 129 -50q61 -52 61 -141zM266 399v252q-62 -5 -96 -40
t-34 -91q0 -55 32 -82q35 -30 98 -39zM464 194q0 58 -35 89q-22 19 -52 27q-12 3 -58 10v-257q68 5 106.5 39.5t38.5 91.5z" />
    <glyph glyph-name="percent" unicode="%" horiz-adv-x="833" 
d="M769 128q0 -61 -38 -98t-97 -37t-97 37t-38 98v105q0 61 38 98t97 37t97 -37t38 -98v-105zM614 712l-334 -712h-60l334 712h60zM335 479q0 -60 -38 -97t-97 -37t-97 37t-38 97v105q0 61 38 98t97 37t97 -37t38 -98v-105zM712 130v101q0 87 -78 87t-78 -87v-101
q0 -87 78 -87t78 87zM278 481v101q0 87 -78 87t-78 -87v-101q0 -86 78 -86t78 86z" />
    <glyph glyph-name="ampersand" unicode="&#x26;" horiz-adv-x="739" 
d="M671 0h-95l-64 78q-90 -84 -210 -84q-103 0 -164 56.5t-61 150.5q0 72 48 127q30 35 106 86q-37 45 -52 69q-25 44 -25 86q0 64 44.5 106.5t112.5 42.5q67 0 111 -43t44 -107q0 -73 -79 -127l-53 -36l182 -219q39 59 40 163h72q-2 -141 -66 -218zM395 568q0 36 -24 60.5
t-60 24.5t-59 -23.5t-23 -59.5q0 -39 64 -117q11 7 38 26q64 44 64 89zM469 130l-196 236q-62 -43 -84 -67q-38 -42 -38 -96q0 -63 42 -102.5t108 -39.5q91 0 168 69z" />
    <glyph glyph-name="quotesingle" unicode="'" horiz-adv-x="255" 
d="M167 542h-79v170h79v-170z" />
    <glyph glyph-name="parenleft" unicode="(" horiz-adv-x="298" 
d="M234 -45l-49 -49q-31 31 -41 43q-19 21 -31 43q-21 39 -21 103v522q0 65 21 103q17 31 72 86l49 -49l-31 -31q-14 -17 -23 -34q-16 -32 -16 -81v-510q0 -49 16 -81q11 -22 54 -65z" />
    <glyph glyph-name="parenright" unicode=")" horiz-adv-x="298" 
d="M205 95q0 -66 -20 -103q-17 -31 -72 -86l-51 51l31 31q16 17 24 34q14 28 14 79v510q0 51 -14 79q-10 20 -55 65l51 51q31 -31 41 -43q19 -21 31 -43q20 -37 20 -103v-522z" />
    <glyph glyph-name="asterisk" unicode="*" horiz-adv-x="474" 
d="M407 472l-28 -49l-117 71l4 -137h-58l4 137l-116 -71l-29 49l120 65l-120 66l29 48l116 -71l-4 137h58l-4 -137l117 71l28 -48l-120 -66z" />
    <glyph glyph-name="plus" unicode="+" 
d="M470 234h-175v-176h-67v176h-176v67h176v174h67v-174h175v-67z" />
    <glyph glyph-name="comma" unicode="," horiz-adv-x="264" 
d="M176 -65l-88 -79v232h88v-153z" />
    <glyph glyph-name="hyphen" unicode="-" horiz-adv-x="426" 
d="M350 236h-274v67h274v-67z" />
    <glyph glyph-name="hyphen" unicode="&#x2010;" horiz-adv-x="426" 
d="M350 236h-274v67h274v-67z" />
    <glyph glyph-name="period" unicode="." horiz-adv-x="270" 
d="M182 0h-94v94h94v-94z" />
    <glyph glyph-name="slash" unicode="/" horiz-adv-x="355" 
d="M356 786l-285 -860h-71l285 860h71z" />
    <glyph glyph-name="zero" unicode="0" 
d="M456 190q0 -87 -55.5 -141.5t-139.5 -54.5t-139.5 54.5t-55.5 141.5v332q0 87 55.5 141.5t139.5 54.5t139.5 -54.5t55.5 -141.5v-332zM384 194v324q0 60 -32.5 98t-90.5 38t-90.5 -38t-32.5 -98v-324q0 -60 32.5 -98t90.5 -38t90.5 38t32.5 98z" />
    <glyph glyph-name="one" unicode="1" 
d="M330 0h-72v632l-133 -117v82l133 115h72v-712z" />
    <glyph glyph-name="two" unicode="2" 
d="M461 0h-393v64l281 357q40 51 40 105q0 58 -33 93t-91 35q-54 0 -87 -30q-37 -34 -37 -99h-72q0 85 54 139t142 54t142 -52.5t54 -139.5q0 -71 -57 -144l-249 -318h306v-64z" />
    <glyph glyph-name="three" unicode="3" 
d="M460 194q0 -95 -61 -150q-57 -51 -148 -51q-89 0 -144 46q-61 49 -65 142h72q4 -63 45 -95q36 -29 92 -29q59 0 98 37t39 101q0 138 -140 138h-15v63h15q127 0 127 129q0 62 -35 96t-89 34q-56 0 -89.5 -32t-38.5 -87h-72q6 85 63 135q54 48 137 48q87 0 141.5 -53
t54.5 -140q0 -114 -96 -158q109 -41 109 -174z" />
    <glyph glyph-name="four" unicode="4" 
d="M482 113h-87v-113h-71v113h-284v65l257 534h77l-257 -534h207v202h71v-202h87v-65z" />
    <glyph glyph-name="five" unicode="5" 
d="M462 235q0 -132 -57 -189q-53 -53 -142 -53q-93 0 -143 51q-44 44 -50 124h72q14 -111 121 -111q55 0 88 33q39 39 39 145q0 173 -120 173q-95 0 -118 -70h-65v374h360v-64h-295v-226q44 49 128 49q78 0 123 -45q59 -59 59 -191z" />
    <glyph glyph-name="six" unicode="6" 
d="M460 205q0 -92 -54 -151.5t-143 -59.5q-90 0 -144 56t-54 149q0 69 45 160l175 353h74l-159 -320q33 15 75 15q83 0 134 -56.5t51 -145.5zM388 202q0 62 -32 102q-35 42 -94 42q-57 0 -91 -39t-34 -105q0 -65 34 -104.5t91 -39.5t91.5 39.5t34.5 104.5z" />
    <glyph glyph-name="seven" unicode="7" 
d="M471 648l-247 -648h-76l247 648h-248v-112h-71v176h395v-64z" />
    <glyph glyph-name="eight" unicode="8" 
d="M471 196q0 -89 -60 -145.5t-150 -56.5t-150 56.5t-60 145.5q0 112 107 173q-93 53 -93 158q0 83 55.5 137t140.5 54t140.5 -54t55.5 -137q0 -105 -92 -158q106 -60 106 -173zM385 526q0 56 -34.5 92t-89.5 36t-89.5 -36t-34.5 -92t34.5 -91.5t89.5 -35.5t89.5 35.5
t34.5 91.5zM399 197q0 59 -39.5 99t-98.5 40t-98.5 -40t-39.5 -99t39.5 -99t98.5 -40t98.5 40t39.5 99z" />
    <glyph glyph-name="nine" unicode="9" 
d="M457 513q0 -69 -45 -160l-175 -353h-75l160 320q-33 -15 -76 -15q-82 0 -133 56.5t-51 145.5q0 92 54 151.5t143 59.5q90 0 144 -56t54 -149zM385 510q0 65 -34.5 104.5t-91.5 39.5t-91 -39.5t-34 -104.5q0 -62 33 -103t92 -41q57 0 91.5 39t34.5 105z" />
    <glyph glyph-name="colon" unicode=":" horiz-adv-x="297" 
d="M209 301h-94v94h94v-94zM209 0h-94v94h94v-94z" />
    <glyph glyph-name="semicolon" unicode=";" horiz-adv-x="297" 
d="M209 301h-94v94h94v-94zM205 -65l-88 -79v232h88v-153z" />
    <glyph glyph-name="less" unicode="&#x3c;" horiz-adv-x="1027" 
d="M972 234h-789l365 -364h-94l-399 399l399 399h94l-365 -364h789v-70z" />
    <glyph glyph-name="equal" unicode="=" 
d="M470 320h-418v67h418v-67zM470 151h-418v66h418v-66z" />
    <glyph glyph-name="greater" unicode="&#x3e;" horiz-adv-x="1027" 
d="M972 269l-399 -399h-94l365 364h-789v70h789l-365 364h94z" />
    <glyph glyph-name="question" unicode="?" horiz-adv-x="497" 
d="M451 536q0 -56 -45 -121l-82 -118q-18 -26 -18 -58v-39h-72v40q0 49 31 94l81 117q33 48 33 85q0 51 -32.5 84.5t-82.5 33.5q-52 0 -84 -35t-32 -84h-72q0 77 54 130t134 53t133.5 -51.5t53.5 -130.5zM313 0h-86v84h86v-84z" />
    <glyph glyph-name="at" unicode="@" horiz-adv-x="713" 
d="M641 -1l-69 1v55q-49 -62 -134 -62q-102 0 -150 81q-30 51 -30 164q0 128 41 183q46 62 138 62q83 0 134 -63v78q0 74 -39 114t-111 40h-130q-69 0 -109 -40t-40 -114v-337q0 -47 11.5 -71.5t45.5 -49.5l-49 -49q-46 34 -62 68.5t-16 100.5v336q0 104 55.5 160.5
t154.5 56.5h148q98 0 154.5 -56.5t56.5 -160.5v-497zM571 238q0 84 -21 126q-29 57 -100 57t-100 -57q-21 -42 -21 -126t21 -126q29 -57 100 -57t100 57q21 42 21 126z" />
    <glyph glyph-name="A" unicode="A" horiz-adv-x="611" 
d="M599 0h-81l-57 161h-311l-57 -161h-81l262 712h64zM439 227l-132 376l-134 -376h266z" />
    <glyph glyph-name="B" unicode="B" horiz-adv-x="668" 
d="M592 197q0 -95 -57.5 -146t-154.5 -51h-277v712h268q94 0 152 -51t58 -139q0 -55 -29.5 -97t-75.5 -59q116 -43 116 -169zM505 521q0 61 -38.5 92t-101.5 31h-186v-247h186q62 0 101 31.5t39 92.5zM516 199q0 60 -38.5 95t-104.5 35h-194v-261h194q66 0 104.5 35.5
t38.5 95.5z" />
    <glyph glyph-name="C" unicode="C" horiz-adv-x="637" 
d="M572 206q-17 -99 -84 -155.5t-163 -56.5q-108 0 -182 74q-46 46 -59 112q-8 45 -8 176t8 176q13 66 59 112q74 74 182 74q97 0 163 -56t84 -156h-78q-14 66 -58.5 105t-110.5 39q-74 0 -123 -50q-32 -33 -42 -83q-8 -44 -8 -161t8 -161q10 -50 42 -83q49 -50 123 -50
q66 0 111.5 39t59.5 105h76z" />
    <glyph glyph-name="D" unicode="D" horiz-adv-x="673" 
d="M597 364q0 -112 -7 -158q-14 -91 -63 -140q-66 -66 -180 -66h-244v712h244q114 0 180 -66q49 -49 63 -132q7 -43 7 -150zM521 364q0 92 -5 128q-9 66 -42 100q-50 52 -140 52h-155v-576h155q90 0 140 52q32 33 42 108q5 40 5 136z" />
    <glyph glyph-name="E" unicode="E" horiz-adv-x="600" 
d="M545 0h-442v712h442v-68h-366v-251h312v-68h-312v-257h366v-68z" />
    <glyph glyph-name="F" unicode="F" horiz-adv-x="580" 
d="M545 644h-366v-262h312v-68h-312v-314h-76v712h442v-68z" />
    <glyph glyph-name="G" unicode="G" horiz-adv-x="650" 
d="M576 260q0 -118 -61 -184q-76 -82 -190 -82q-108 0 -182 74q-46 46 -59 112q-8 45 -8 176t8 176q13 66 59 112q74 74 182 74q100 0 168 -60q65 -57 81 -153h-76q-15 68 -61 106.5t-112 38.5q-73 0 -123 -51q-32 -33 -42 -83q-8 -43 -8 -160t8 -161q10 -50 42 -83
q49 -50 123 -50q85 0 135 61q40 48 40 129v54h-175v67h251v-113z" />
    <glyph glyph-name="H" unicode="H" horiz-adv-x="696" 
d="M593 0h-76v325h-338v-325h-76v712h76v-319h338v319h76v-712z" />
    <glyph glyph-name="I" unicode="I" horiz-adv-x="282" 
d="M179 0h-76v712h76v-712z" />
    <glyph glyph-name="J" unicode="J" horiz-adv-x="501" 
d="M408 216q0 -102 -61.5 -162t-160.5 -60t-163 64l51 51q47 -47 112 -47q70 0 108 42.5t38 121.5v486h76v-496z" />
    <glyph glyph-name="K" unicode="K" horiz-adv-x="650" 
d="M636 0h-90l-217 379l-150 -180v-199h-76v712h76v-409l332 409h93l-224 -275z" />
    <glyph glyph-name="L" unicode="L" horiz-adv-x="573" 
d="M543 0h-440v712h76v-644h364v-68z" />
    <glyph glyph-name="M" unicode="M" horiz-adv-x="816" 
d="M713 0h-76v541l-195 -429h-65l-198 429v-541h-76v712h76l232 -505l226 505h76v-712z" />
    <glyph glyph-name="N" unicode="N" horiz-adv-x="732" 
d="M629 0h-72l-378 571v-571h-76v712h72l378 -569v569h76v-712z" />
    <glyph glyph-name="O" unicode="O" horiz-adv-x="650" 
d="M574 356q0 -131 -8 -176q-13 -66 -59 -112q-74 -74 -182 -74t-182 74q-46 46 -59 112q-8 45 -8 176t8 176q13 66 59 112q74 74 182 74t182 -74q46 -46 59 -112q8 -45 8 -176zM498 356q0 117 -8 160q-10 50 -42 83q-50 51 -123 51t-123 -51q-32 -33 -42 -83
q-8 -43 -8 -160t8 -160q10 -50 42 -83q50 -51 123 -51t123 51q32 33 42 83q8 43 8 160z" />
    <glyph glyph-name="P" unicode="P" horiz-adv-x="630" 
d="M588 503q0 -95 -61 -152.5t-159 -57.5h-189v-293h-76v712h265q98 0 159 -57t61 -152zM512 503q0 69 -41 105t-110 36h-182v-283h182q69 0 110 36.5t41 105.5z" />
    <glyph glyph-name="Q" unicode="Q" horiz-adv-x="649" 
d="M603 11l-46 -46l-79 79q-65 -50 -153 -50q-108 0 -182 74q-46 46 -59 112q-8 45 -8 176t8 176q13 66 59 112q74 74 182 74t182 -74q46 -46 59 -112q8 -45 8 -176q0 -119 -6 -162q-9 -63 -43 -105zM498 356q0 117 -8 160q-10 50 -42 83q-50 51 -123 51t-123 -51
q-32 -33 -42 -83q-8 -43 -8 -160t8 -160q10 -50 42 -83q50 -51 123 -51q56 0 101 34l-90 90l46 46l87 -87q18 30 24 79q5 39 5 132z" />
    <glyph glyph-name="R" unicode="R" horiz-adv-x="656" 
d="M601 0h-89l-162 316h-171v-316h-76v712h273q94 0 152.5 -53.5t58.5 -144.5q0 -76 -42 -126t-113 -65zM511 513q0 63 -39 97t-103 34h-190v-261h190q65 0 103.5 33.5t38.5 96.5z" />
    <glyph glyph-name="S" unicode="S" horiz-adv-x="588" 
d="M532 196q0 -93 -67 -147.5t-179 -54.5q-150 0 -244 94l52 52q78 -78 194 -78q78 0 123 35t45 97q0 59 -34 89q-27 24 -93 34l-83 13q-185 29 -185 187q0 91 61.5 146t166.5 55q125 0 212 -78l-49 -49q-67 61 -166 61q-70 0 -110 -36t-40 -96q0 -54 33 -82.5t95 -38.5
l78 -12q87 -13 130 -50q60 -51 60 -141z" />
    <glyph glyph-name="T" unicode="T" horiz-adv-x="548" 
d="M518 644h-206v-644h-76v644h-206v68h488v-68z" />
    <glyph glyph-name="U" unicode="U" horiz-adv-x="683" 
d="M590 235q0 -106 -70.5 -173.5t-178.5 -67.5t-178 67.5t-70 173.5v477h76v-471q0 -81 47 -130t125 -49t125.5 49t47.5 130v471h76v-477z" />
    <glyph glyph-name="V" unicode="V" horiz-adv-x="546" 
d="M538 712l-234 -712h-62l-234 712h80l185 -576l185 576h80z" />
    <glyph glyph-name="W" unicode="W" horiz-adv-x="854" 
d="M838 712l-182 -712h-71l-158 570l-158 -570h-71l-182 712h81l139 -574l157 574h68l157 -574l139 574h81z" />
    <glyph glyph-name="X" unicode="X" horiz-adv-x="551" 
d="M536 0h-88l-173 299l-174 -299h-86l218 365l-204 347h88l158 -281l158 281h88l-205 -347z" />
    <glyph glyph-name="Y" unicode="Y" horiz-adv-x="514" 
d="M506 712l-210 -418v-294h-76v294l-212 418h82l168 -341l166 341h82z" />
    <glyph glyph-name="Z" unicode="Z" horiz-adv-x="556" 
d="M499 0h-442v72l356 572h-342v68h428v-64l-359 -580h359v-68z" />
    <glyph glyph-name="bracketleft" unicode="[" horiz-adv-x="313" 
d="M269 -74h-177v860h177v-64h-105v-732h105v-64z" />
    <glyph glyph-name="backslash" unicode="\" horiz-adv-x="355" 
d="M355 -74h-71l-284 857h71z" />
    <glyph glyph-name="bracketright" unicode="]" horiz-adv-x="313" 
d="M221 -74h-177v62h108v736h-108v62h177v-860z" />
    <glyph glyph-name="asciicircum" unicode="^" horiz-adv-x="537" 
d="M465 413h-74l-122 228l-123 -228h-74l164 305h66z" />
    <glyph glyph-name="underscore" unicode="_" horiz-adv-x="537" 
d="M537 -165h-537v51h537v-51z" />
    <glyph glyph-name="grave" unicode="`" horiz-adv-x="500" 
d="M299 594h-66l-108 153h86z" />
    <glyph glyph-name="a" unicode="a" horiz-adv-x="526" 
d="M441 0h-72v47q-53 -53 -142 -53q-95 0 -139 45q-37 38 -37 100q0 66 44.5 104t125.5 38h148v47q0 108 -126 108q-84 0 -124 -56l-49 45q32 41 74 58q38 15 100 15q197 0 197 -164v-334zM369 174v53h-138q-110 0 -110 -87q0 -84 113 -84q76 0 110 33q25 24 25 85z" />
    <glyph glyph-name="b" unicode="b" horiz-adv-x="545" 
d="M481 246q0 -149 -60 -209q-43 -43 -120 -43q-89 0 -139 65v-59h-72v712h72v-277q49 63 139 63q77 0 120 -43q60 -60 60 -209zM409 246q0 87 -21 130q-29 58 -102 58t-102 -58q-22 -43 -22 -130t22 -130q29 -58 102 -58t102 58q21 43 21 130z" />
    <glyph glyph-name="c" unicode="c" horiz-adv-x="490" 
d="M443 67q-38 -41 -74 -57t-88 -16q-97 0 -155 63q-63 67 -63 189t63 189q58 63 155 63q52 0 88 -16t74 -57l-49 -46q-50 55 -113 55q-74 0 -114 -56q-32 -45 -32 -132t32 -132q40 -56 114 -56q62 0 113 56z" />
    <glyph glyph-name="d" unicode="d" horiz-adv-x="545" 
d="M455 0h-71v59q-50 -65 -140 -65q-77 0 -120 43q-60 60 -60 209t60 209q43 43 120 43q90 0 139 -63v277h72v-712zM383 246q0 87 -21 130q-29 58 -102 58t-102 -58q-22 -43 -22 -130t22 -130q29 -58 102 -58t102 58q21 43 21 130z" />
    <glyph glyph-name="e" unicode="e" horiz-adv-x="530" 
d="M467 227h-332q0 -81 37.5 -125.5t107.5 -44.5q73 0 129 56l49 -43q-40 -40 -77 -57q-43 -19 -103 -19q-101 0 -156 61q-59 64 -59 191q0 119 54 185.5t148 66.5q95 0 148.5 -64t53.5 -174v-33zM395 281q-3 52 -15 82q-31 74 -115 74t-115 -74q-12 -30 -15 -82h260z" />
    <glyph glyph-name="f" unicode="f" horiz-adv-x="314" 
d="M283 434h-105v-434h-72v434h-63v55h63v93q0 58 31 93q34 39 94 39h52v-62h-39q-66 0 -66 -72v-91h105v-55z" />
    <glyph glyph-name="g" unicode="g" horiz-adv-x="543" 
d="M453 -15q0 -93 -55 -152t-150 -59q-54 0 -90.5 15t-76.5 51l47 46q30 -27 51 -37q27 -12 67 -12q68 0 103 44q32 40 32 107v77q-50 -64 -138 -64q-75 0 -119 44q-60 60 -60 205t60 205q43 43 120 43q89 0 138 -64v58h71v-507zM381 250q0 84 -21 127q-28 57 -101 57
t-102 -57q-21 -43 -21 -127t21 -126q29 -58 102 -58t101 58q21 42 21 126z" />
    <glyph glyph-name="h" unicode="h" horiz-adv-x="562" 
d="M477 0h-72v304q0 130 -120 130q-57 0 -90 -33.5t-33 -96.5v-304h-72v712h72v-274q53 60 138 60q83 0 130 -49t47 -133v-316z" />
    <glyph glyph-name="i" unicode="i" horiz-adv-x="253" 
d="M167 632h-81v81h81v-81zM162 0h-72v492h72v-492z" />
    <glyph glyph-name="j" unicode="j" horiz-adv-x="253" 
d="M167 632h-81v81h81v-81zM162 -89q0 -59 -30 -94q-33 -38 -95 -38h-52v63h39q66 0 66 72v575h72v-578z" />
    <glyph glyph-name="k" unicode="k" horiz-adv-x="536" 
d="M503 0h-89l-156 252l-96 -110v-142h-72v712h72v-476l222 256h90l-167 -188z" />
    <glyph glyph-name="l" unicode="l" horiz-adv-x="297" 
d="M265 0h-52q-62 0 -93.5 36t-31.5 95v581h72v-578q0 -72 66 -72h39v-62z" />
    <glyph glyph-name="m" unicode="m" horiz-adv-x="879" 
d="M794 0h-72v303q0 131 -121 131q-55 0 -89 -33t-34 -90v-311h-72v303q0 131 -121 131q-57 0 -90 -34t-33 -97v-303h-72v492h72v-54q53 60 139 60q105 0 151 -82q58 82 162 82q80 0 127 -46q53 -51 53 -137v-315z" />
    <glyph glyph-name="n" unicode="n" horiz-adv-x="562" 
d="M477 0h-72v303q0 131 -121 131q-57 0 -89.5 -34t-32.5 -97v-303h-72v492h72v-54q53 60 138 60q79 0 126 -46q51 -50 51 -137v-315z" />
    <glyph glyph-name="o" unicode="o" horiz-adv-x="530" 
d="M466 246q0 -135 -60 -196q-55 -56 -141 -56t-141 56q-60 61 -60 196t60 196q55 56 141 56t141 -56q60 -61 60 -196zM394 246q0 113 -39 152q-36 36 -90 36q-53 0 -89 -36q-40 -40 -40 -152t40 -152q36 -36 89 -36q54 0 91.5 37.5t37.5 150.5z" />
    <glyph glyph-name="p" unicode="p" horiz-adv-x="545" 
d="M481 246q0 -149 -60 -209q-43 -43 -120 -43q-89 0 -139 64v-278h-72v712h72v-58q49 64 139 64q77 0 120 -43q60 -60 60 -209zM409 246q0 87 -21 130q-29 58 -102 58t-102 -58q-22 -43 -22 -130t22 -130q29 -58 102 -58t102 58q21 43 21 130z" />
    <glyph glyph-name="q" unicode="q" horiz-adv-x="545" 
d="M455 -220h-72v278q-50 -64 -139 -64q-77 0 -120 43q-60 60 -60 209t60 209q43 43 120 43q91 0 140 -64v58h71v-712zM383 246q0 87 -21 130q-29 58 -102 58t-102 -58q-22 -43 -22 -130t22 -130q29 -58 102 -58t102 58q21 43 21 130z" />
    <glyph glyph-name="r" unicode="r" horiz-adv-x="421" 
d="M418 452l-53 -54q-36 36 -85 36q-53 0 -85.5 -37.5t-32.5 -94.5v-302h-72v492h72v-60q43 66 138 66q72 0 118 -46z" />
    <glyph glyph-name="s" unicode="s" horiz-adv-x="496" 
d="M445 144q0 -70 -54.5 -110t-145.5 -40q-128 0 -202 71l48 48q54 -57 153 -57q131 0 131 87q0 65 -82 72l-81 7q-147 13 -147 132q0 66 50.5 105t130.5 39q112 0 177 -53l-47 -47q-51 39 -131 39q-110 0 -110 -81q0 -64 86 -72l79 -7q145 -13 145 -133z" />
    <glyph glyph-name="t" unicode="t" horiz-adv-x="332" 
d="M279 0h-51q-61 0 -94 39q-32 35 -32 93v302h-62v55h62v154h72v-154h105v-55h-105v-300q0 -72 67 -72h38v-62z" />
    <glyph glyph-name="u" unicode="u" horiz-adv-x="562" 
d="M472 0h-71v55q-53 -61 -139 -61q-80 0 -127 46q-50 49 -50 138v314h72v-303q0 -131 120 -131q57 0 90 34t33 97v303h72v-492z" />
    <glyph glyph-name="v" unicode="v" horiz-adv-x="447" 
d="M436 492l-181 -492h-64l-180 492h78l134 -395l135 395h78z" />
    <glyph glyph-name="w" unicode="w" horiz-adv-x="724" 
d="M713 492l-155 -492h-67l-129 382l-128 -382h-67l-156 492h78l113 -395l129 395h62l130 -395l112 395h78z" />
    <glyph glyph-name="x" unicode="x" horiz-adv-x="478" 
d="M445 0h-87l-118 191l-120 -191h-87l167 251l-160 241h87l113 -182l111 182h87l-160 -241z" />
    <glyph glyph-name="y" unicode="y" horiz-adv-x="447" 
d="M436 492l-224 -611q-14 -38 -35 -58q-36 -34 -96 -34h-31v64h22q36 0 52 13t29 48l35 96l-177 482h78l135 -395l134 395h78z" />
    <glyph glyph-name="z" unicode="z" horiz-adv-x="459" 
d="M407 0h-357v62l274 366h-259v64h342v-61l-275 -367h275v-64z" />
    <glyph glyph-name="braceleft" unicode="{" horiz-adv-x="354" 
d="M305 -74h-37q-71 0 -101 30t-30 99v191q0 42 -18 60t-45 18h-26v64h26q27 0 45 18t18 60v191q0 69 30 99t101 30h37v-64h-23q-57 0 -67 -26q-6 -15 -6 -52v-188q0 -70 -63 -100q63 -30 63 -100v-188q0 -56 19 -69q13 -9 54 -9h23v-64z" />
    <glyph glyph-name="bar" unicode="|" horiz-adv-x="326" 
d="M199 -74h-72v860h72v-860z" />
    <glyph glyph-name="braceright" unicode="}" horiz-adv-x="354" 
d="M305 324h-25q-27 0 -45 -18t-18 -60v-191q0 -69 -30 -99t-101 -30h-38v64h24q45 0 59 14t14 64v188q0 70 63 100q-63 30 -63 100v188q0 55 -20 69q-13 9 -53 9h-24v64h38q71 0 101 -30t30 -99v-191q0 -42 18 -60t45 -18h25v-64z" />
    <glyph glyph-name="asciitilde" unicode="~" horiz-adv-x="539" 
d="M490 278q-41 -41 -67.5 -54.5t-61.5 -13.5q-38 0 -106 31q-53 24 -78 24q-39 0 -84 -45l-44 45q41 41 69 55q25 13 60 13q37 0 105 -31q53 -24 78 -24q39 0 84 45z" />
    <glyph glyph-name="exclamdown" unicode="&#xa1;" horiz-adv-x="316" 
d="M185 408h-86v84h86v-84zM184 -220h-83l10 512h62z" />
    <glyph glyph-name="cent" unicode="&#xa2;" horiz-adv-x="498" 
d="M448 189q-63 -68 -145 -74v-115h-59v117q-84 12 -132.5 77.5t-48.5 171.5t49 173q48 64 132 76v97h59v-95q82 -6 145 -74l-49 -46q-45 51 -100 55v-372q55 4 100 55zM248 182v368q-49 -9 -80 -52q-33 -46 -33 -132t32 -130.5t81 -53.5z" />
    <glyph glyph-name="sterling" unicode="&#xa3;" horiz-adv-x="548" 
d="M496 0h-386v330h-63v54h63v112q0 101 62 161.5t161 60.5t163 -64l-52 -51q-47 47 -111 47q-70 0 -108 -42.5t-38 -121.5v-102h146v-54h-146v-262h309v-68z" />
    <glyph glyph-name="currency" unicode="&#xa4;" horiz-adv-x="660" 
d="M582 65l-46 -46l-75 74q-59 -44 -131 -44q-73 0 -132 44l-74 -74l-46 46l74 74q-44 59 -44 132t44 132l-74 73l46 46l74 -73q57 43 132 43q74 0 131 -43l75 73l46 -46l-74 -73q44 -59 44 -132t-44 -132zM485 271q0 65 -45 110t-110 45t-110.5 -45.5t-45.5 -109.5t46 -110
t110 -46t109.5 45.5t45.5 110.5z" />
    <glyph glyph-name="yen" unicode="&#xa5;" horiz-adv-x="514" 
d="M506 712l-157 -311h100v-54h-127l-26 -53v-52h153v-55h-153v-187h-77v187h-154v55h154v52l-26 53h-128v54h100l-157 311h82l168 -341l167 341h81z" />
    <glyph glyph-name="brokenbar" unicode="&#xa6;" horiz-adv-x="335" 
d="M199 436h-72v350h72v-350zM199 -74h-72v350h72v-350z" />
    <glyph glyph-name="section" unicode="&#xa7;" horiz-adv-x="557" 
d="M470 254q0 -57 -32 -103q-28 -39 -72 -61q97 -36 97 -144q0 -77 -52.5 -124.5t-131.5 -47.5q-78 0 -129 40q-56 44 -60 121h73q9 -95 116 -95q52 0 81.5 27.5t29.5 77.5q0 77 -88 102l-78 22q-137 39 -137 183q0 58 32 103q28 39 73 61q-93 42 -93 138q0 73 50.5 118.5
t129.5 45.5t129 -42.5t53 -114.5h-72q-7 93 -110 93q-108 0 -108 -99q0 -72 84 -96l78 -22q65 -18 101 -66.5t36 -116.5zM397 253q0 60 -32 92q-36 36 -86 36q-53 0 -86 -36t-33 -92t33 -92t86 -36t85.5 35.5t32.5 92.5z" />
    <glyph glyph-name="dieresis" unicode="&#xa8;" horiz-adv-x="500" 
d="M392 602h-72v89h72v-89zM180 602h-72v89h72v-89z" />
    <glyph glyph-name="copyright" unicode="&#xa9;" horiz-adv-x="881" 
d="M802 356q0 -150 -106 -256t-256 -106t-256 106t-106 256t106 256t256 106t256 -106t106 -256zM744 356q0 127 -89 217.5t-215 90.5t-214.5 -90.5t-88.5 -217.5t88.5 -217.5t214.5 -90.5t215 90.5t89 217.5zM576 205q-58 -52 -131 -52q-85 0 -132 58q-46 54 -46 145
t46.5 147.5t131.5 56.5q71 0 131 -53l-36 -36q-44 39 -95 39q-122 0 -122 -154q0 -153 122 -153q52 0 95 38z" />
    <glyph glyph-name="ordfeminine" unicode="&#xaa;" horiz-adv-x="449" 
d="M365 319h-58v36q-42 -41 -111 -41q-75 0 -110 36q-30 31 -30 79q0 53 35.5 83.5t99.5 30.5h115v36q0 84 -97 84q-66 0 -98 -44l-41 37q47 60 140 60q155 0 155 -132v-265zM306 458v40h-107q-84 0 -84 -67q0 -65 86 -65q60 0 86 25q19 18 19 67z" />
    <glyph glyph-name="guillemotleft" unicode="&#xab;" horiz-adv-x="554" 
d="M476 58l-210 210l210 210v-90l-121 -120l121 -121v-89zM250 58l-210 210l210 210v-90l-120 -120l120 -121v-89z" />
    <glyph glyph-name="logicalnot" unicode="&#xac;" 
d="M471 103h-67v137h-353v67h420v-204z" />
    <glyph glyph-name="registered" unicode="&#xae;" horiz-adv-x="881" 
d="M802 356q0 -150 -106 -256t-256 -106t-256 106t-106 256t106 256t256 106t256 -106t106 -256zM745 356q0 128 -89.5 218.5t-215.5 90.5t-215 -90.5t-89 -218.5t89 -218.5t215 -90.5t215.5 90.5t89.5 218.5zM592 158h-64l-91 162h-60v-162h-55v397h135q52 0 88.5 -34.5
t36.5 -84.5q0 -83 -85 -109zM526 436q0 30 -21 50t-54 20h-74v-139h74q33 0 54 19.5t21 49.5z" />
    <glyph glyph-name="degree" unicode="&#xb0;" horiz-adv-x="463" 
d="M396 557q0 -68 -48 -116t-116 -48t-116.5 48t-48.5 116t48.5 116t116.5 48t116 -48t48 -116zM335 557q0 45 -30 75.5t-74 30.5t-73.5 -30.5t-29.5 -75.5t30 -75.5t74 -30.5t73.5 30.5t29.5 75.5z" />
    <glyph glyph-name="plusminus" unicode="&#xb1;" 
d="M470 289h-175v-177h-67v177h-176v67h176v175h67v-175h175v-67zM470 0h-418v67h418v-67z" />
    <glyph glyph-name="twosuperior" unicode="&#xb2;" horiz-adv-x="342" 
d="M294 285h-246v52l165 202q23 28 23 58q0 67 -65 67t-65 -67h-58q0 54 34.5 86.5t88.5 32.5q55 0 89 -32.5t34 -86.5q0 -45 -39 -92l-138 -168h177v-52z" />
    <glyph glyph-name="threesuperior" unicode="&#xb3;" horiz-adv-x="356" 
d="M308 405q0 -59 -36.5 -92t-92.5 -33q-55 0 -90 29q-39 32 -41 90h58q3 -67 73 -67q32 0 52 19.5t20 53.5q0 73 -75 73h-9v50h9q68 0 68 68q0 32 -19 50t-47 18q-62 0 -67 -63h-57q3 53 38 84t86 31q54 0 88.5 -33t34.5 -86q0 -67 -54 -92q61 -26 61 -100z" />
    <glyph glyph-name="acute" unicode="&#xb4;" horiz-adv-x="500" 
d="M375 747l-108 -153h-66l88 153h86z" />
    <glyph glyph-name="paragraph" unicode="&#xb6;" horiz-adv-x="603" 
d="M500 -220h-72v864h-117v-864h-72v546q-87 0 -143 59q-54 56 -54 133q0 83 58.5 138.5t158.5 55.5h241v-932z" />
    <glyph glyph-name="cedilla" unicode="&#xb8;" horiz-adv-x="500" 
d="M313 -67l-59 -149h-79l71 149h67z" />
    <glyph glyph-name="onesuperior" unicode="&#xb9;" horiz-adv-x="261" 
d="M183 285h-57v363l-83 -73v66l83 71h57v-427z" />
    <glyph glyph-name="ordmasculine" unicode="&#xba;" horiz-adv-x="455" 
d="M387 515q0 -107 -48 -156q-43 -44 -112 -44t-112 44q-48 49 -48 156t48 156q44 45 112 45t112 -45q48 -49 48 -156zM328 515q0 88 -31 119q-28 28 -70 28t-71 -29t-29 -118q0 -88 29.5 -117.5t70.5 -29.5t71 30t30 117z" />
    <glyph glyph-name="guillemotright" unicode="&#xbb;" horiz-adv-x="554" 
d="M514 268l-210 -210v89l120 121l-120 120v90zM288 268l-210 -210v89l121 121l-121 120v90z" />
    <glyph glyph-name="onequarter" unicode="&#xbc;" horiz-adv-x="777" 
d="M737 64h-47v-64h-56v64h-172v53l151 310h62l-150 -310h109v105h56v-105h47v-53zM566 712l-333 -712h-60l333 712h60zM183 285h-57v363l-83 -73v66l83 71h57v-427z" />
    <glyph glyph-name="onehalf" unicode="&#xbd;" horiz-adv-x="790" 
d="M742 0h-246v52l165 202q23 28 23 58q0 67 -65 67t-65 -67h-58q0 54 34.5 86.5t88.5 32.5q55 0 89 -32.5t34 -86.5q0 -44 -39 -92l-137 -168h176v-52zM554 712l-333 -712h-60l333 712h60zM183 285h-57v363l-83 -73v66l83 71h57v-427z" />
    <glyph glyph-name="threequarters" unicode="&#xbe;" horiz-adv-x="822" 
d="M782 64h-47v-64h-56v64h-172v53l151 310h62l-151 -310h110v105h56v-105h47v-53zM619 712l-334 -712h-60l334 712h60zM308 405q0 -59 -36.5 -92t-92.5 -33q-55 0 -90 29q-39 32 -41 90h58q3 -67 73 -67q32 0 52 19.5t20 53.5q0 73 -75 73h-9v50h9q68 0 68 68q0 32 -19 50
t-47 18q-62 0 -67 -63h-57q3 53 38 84t86 31q54 0 88.5 -33t34.5 -86q0 -67 -54 -92q61 -26 61 -100z" />
    <glyph glyph-name="questiondown" unicode="&#xbf;" horiz-adv-x="497" 
d="M270 408h-85v84h85v-84zM421 -43q0 -77 -53.5 -130t-133.5 -53t-134 52t-54 131q0 54 46 120l82 118q18 26 18 58v40h72v-41q0 -48 -32 -94l-81 -116q-33 -47 -33 -85q0 -50 33 -84t83 -34q52 0 83.5 34.5t31.5 83.5h72z" />
    <glyph glyph-name="Agrave" unicode="&#xc0;" horiz-adv-x="611" 
d="M599 0h-81l-57 161h-311l-57 -161h-81l262 712h64zM439 227l-132 376l-134 -376h266zM351 781h-66l-108 153h86z" />
    <glyph glyph-name="Aacute" unicode="&#xc1;" horiz-adv-x="611" 
d="M599 0h-81l-57 161h-311l-57 -161h-81l262 712h64zM439 227l-132 376l-134 -376h266zM427 934l-108 -153h-66l88 153h86z" />
    <glyph glyph-name="Acircumflex" unicode="&#xc2;" horiz-adv-x="611" 
d="M599 0h-81l-57 161h-311l-57 -161h-81l262 712h64zM439 227l-132 376l-134 -376h266zM461 781h-69l-90 104l-90 -104h-69l125 153h68z" />
    <glyph glyph-name="Atilde" unicode="&#xc3;" horiz-adv-x="611" 
d="M599 0h-81l-57 161h-311l-57 -161h-81l262 712h64zM439 227l-132 376l-134 -376h266zM459 846q-51 -51 -95 -51q-31 0 -71 23q-36 21 -56 21q-27 0 -59 -32l-37 36q51 51 95 51q32 0 71 -24q33 -20 56 -20q27 0 59 32z" />
    <glyph glyph-name="Adieresis" unicode="&#xc4;" horiz-adv-x="611" 
d="M599 0h-81l-57 161h-311l-57 -161h-81l262 712h64zM439 227l-132 376l-134 -376h266zM444 789h-72v89h72v-89zM232 789h-72v89h72v-89z" />
    <glyph glyph-name="Aring" unicode="&#xc5;" horiz-adv-x="611" 
d="M599 0h-81l-57 161h-311l-57 -161h-81l262 712h64zM439 227l-132 376l-134 -376h266zM420 867q0 -49 -34.5 -84t-83.5 -35t-83.5 35t-34.5 84t34.5 83.5t83.5 34.5t83.5 -34.5t34.5 -83.5zM371 867q0 28 -20 48t-49 20t-49 -20t-20 -48t20.5 -48.5t48.5 -20.5
q29 0 49 20.5t20 48.5z" />
    <glyph glyph-name="AE" unicode="&#xc6;" horiz-adv-x="922" 
d="M867 0h-441v169h-247l-88 -169h-83l376 712h483v-68h-366v-253h312v-68h-312v-255h366v-68zM426 235v409l-214 -409h214z" />
    <glyph glyph-name="Ccedilla" unicode="&#xc7;" horiz-adv-x="637" 
d="M572 206q-17 -99 -84 -155.5t-163 -56.5q-108 0 -182 74q-46 46 -59 112q-8 45 -8 176t8 176q13 66 59 112q74 74 182 74q97 0 163 -56t84 -156h-78q-14 66 -58.5 105t-110.5 39q-74 0 -123 -50q-32 -33 -42 -83q-8 -44 -8 -161t8 -161q10 -50 42 -83q49 -50 123 -50
q66 0 111.5 39t59.5 105h76zM370 -67l-59 -149h-79l71 149h67z" />
    <glyph glyph-name="Egrave" unicode="&#xc8;" horiz-adv-x="600" 
d="M545 0h-442v712h442v-68h-366v-251h312v-68h-312v-257h366v-68zM362 781h-66l-108 153h86z" />
    <glyph glyph-name="Eacute" unicode="&#xc9;" horiz-adv-x="600" 
d="M545 0h-442v712h442v-68h-366v-251h312v-68h-312v-257h366v-68zM438 934l-108 -153h-66l88 153h86z" />
    <glyph glyph-name="Ecircumflex" unicode="&#xca;" horiz-adv-x="600" 
d="M545 0h-442v712h442v-68h-366v-251h312v-68h-312v-257h366v-68zM472 781h-69l-90 104l-90 -104h-69l125 153h68z" />
    <glyph glyph-name="Edieresis" unicode="&#xcb;" horiz-adv-x="600" 
d="M545 0h-442v712h442v-68h-366v-251h312v-68h-312v-257h366v-68zM455 789h-72v89h72v-89zM243 789h-72v89h72v-89z" />
    <glyph glyph-name="Igrave" unicode="&#xcc;" horiz-adv-x="282" 
d="M179 0h-76v712h76v-712zM205 781h-66l-108 153h86z" />
    <glyph glyph-name="Iacute" unicode="&#xcd;" horiz-adv-x="282" 
d="M179 0h-76v712h76v-712zM253 934l-108 -153h-66l88 153h86z" />
    <glyph glyph-name="Icircumflex" unicode="&#xce;" horiz-adv-x="282" 
d="M179 0h-76v712h76v-712zM298 781h-69l-90 104l-90 -104h-69l125 153h68z" />
    <glyph glyph-name="Idieresis" unicode="&#xcf;" horiz-adv-x="282" 
d="M179 0h-76v712h76v-712zM282 789h-72v89h72v-89zM70 789h-72v89h72v-89z" />
    <glyph glyph-name="Eth" unicode="&#xd0;" horiz-adv-x="687" 
d="M611 356q0 -104 -3 -130q-8 -74 -41 -121q-75 -105 -211 -105h-239v330h-78v59h78v323h245q135 0 205 -107q30 -46 37 -90q7 -40 7 -159zM535 352q0 107 -5 143q-7 45 -31 78q-52 72 -151 72h-154v-256h161v-59h-161v-263h154q107 0 156 74q21 32 26 70q5 33 5 141z" />
    <glyph glyph-name="Ntilde" unicode="&#xd1;" horiz-adv-x="732" 
d="M629 0h-72l-378 571v-571h-76v712h72l378 -569v569h76v-712zM523 846q-51 -51 -95 -51q-31 0 -71 23q-36 21 -56 21q-27 0 -59 -32l-37 36q51 51 95 51q32 0 71 -24q33 -20 56 -20q27 0 59 32z" />
    <glyph glyph-name="Ograve" unicode="&#xd2;" horiz-adv-x="650" 
d="M574 356q0 -131 -8 -176q-13 -66 -59 -112q-74 -74 -182 -74t-182 74q-46 46 -59 112q-8 45 -8 176t8 176q13 66 59 112q74 74 182 74t182 -74q46 -46 59 -112q8 -45 8 -176zM498 356q0 117 -8 160q-10 50 -42 83q-50 51 -123 51t-123 -51q-32 -33 -42 -83
q-8 -43 -8 -160t8 -160q10 -50 42 -83q50 -51 123 -51t123 51q32 33 42 83q8 43 8 160zM374 781h-66l-108 153h86z" />
    <glyph glyph-name="Oacute" unicode="&#xd3;" horiz-adv-x="650" 
d="M574 356q0 -131 -8 -176q-13 -66 -59 -112q-74 -74 -182 -74t-182 74q-46 46 -59 112q-8 45 -8 176t8 176q13 66 59 112q74 74 182 74t182 -74q46 -46 59 -112q8 -45 8 -176zM498 356q0 117 -8 160q-10 50 -42 83q-50 51 -123 51t-123 -51q-32 -33 -42 -83
q-8 -43 -8 -160t8 -160q10 -50 42 -83q50 -51 123 -51t123 51q32 33 42 83q8 43 8 160zM450 934l-108 -153h-66l88 153h86z" />
    <glyph glyph-name="Ocircumflex" unicode="&#xd4;" horiz-adv-x="650" 
d="M574 356q0 -131 -8 -176q-13 -66 -59 -112q-74 -74 -182 -74t-182 74q-46 46 -59 112q-8 45 -8 176t8 176q13 66 59 112q74 74 182 74t182 -74q46 -46 59 -112q8 -45 8 -176zM498 356q0 117 -8 160q-10 50 -42 83q-50 51 -123 51t-123 -51q-32 -33 -42 -83
q-8 -43 -8 -160t8 -160q10 -50 42 -83q50 -51 123 -51t123 51q32 33 42 83q8 43 8 160zM484 781h-69l-90 104l-90 -104h-69l125 153h68z" />
    <glyph glyph-name="Otilde" unicode="&#xd5;" horiz-adv-x="650" 
d="M574 356q0 -131 -8 -176q-13 -66 -59 -112q-74 -74 -182 -74t-182 74q-46 46 -59 112q-8 45 -8 176t8 176q13 66 59 112q74 74 182 74t182 -74q46 -46 59 -112q8 -45 8 -176zM498 356q0 117 -8 160q-10 50 -42 83q-50 51 -123 51t-123 -51q-32 -33 -42 -83
q-8 -43 -8 -160t8 -160q10 -50 42 -83q50 -51 123 -51t123 51q32 33 42 83q8 43 8 160zM482 846q-51 -51 -95 -51q-31 0 -71 23q-36 21 -56 21q-27 0 -59 -32l-37 36q51 51 95 51q32 0 71 -24q33 -20 56 -20q27 0 59 32z" />
    <glyph glyph-name="Odieresis" unicode="&#xd6;" horiz-adv-x="650" 
d="M574 356q0 -131 -8 -176q-13 -66 -59 -112q-74 -74 -182 -74t-182 74q-46 46 -59 112q-8 45 -8 176t8 176q13 66 59 112q74 74 182 74t182 -74q46 -46 59 -112q8 -45 8 -176zM498 356q0 117 -8 160q-10 50 -42 83q-50 51 -123 51t-123 -51q-32 -33 -42 -83
q-8 -43 -8 -160t8 -160q10 -50 42 -83q50 -51 123 -51t123 51q32 33 42 83q8 43 8 160zM467 789h-72v89h72v-89zM255 789h-72v89h72v-89z" />
    <glyph glyph-name="multiply" unicode="&#xd7;" 
d="M457 119l-45 -45l-151 151l-151 -151l-45 45l151 151l-151 151l45 45l151 -152l151 152l45 -45l-152 -151z" />
    <glyph glyph-name="Oslash" unicode="&#xd8;" horiz-adv-x="652" 
d="M574 356q0 -131 -8 -176q-13 -66 -59 -112q-74 -74 -182 -74q-70 0 -126 32l-33 -70h-65l50 104l-8 8q-46 46 -59 113q-8 44 -8 175t8 176q13 66 59 112q74 74 182 74q70 0 125 -31l34 69h65l-50 -104l8 -8q46 -46 59 -113q8 -44 8 -175zM497 356q0 105 -5 146
q-7 49 -29 79l-234 -490q45 -29 96 -29q73 0 123 51q32 33 41 83q8 42 8 160zM421 621q-45 29 -96 29q-73 0 -123 -51q-32 -33 -42 -83q-8 -43 -8 -160q0 -104 6 -145q7 -50 29 -80z" />
    <glyph glyph-name="Ugrave" unicode="&#xd9;" horiz-adv-x="682" 
d="M590 235q0 -106 -70.5 -173.5t-178.5 -67.5t-178 67.5t-70 173.5v477h76v-471q0 -81 47 -130t125 -49t125.5 49t47.5 130v471h76v-477zM390 781h-66l-108 153h86z" />
    <glyph glyph-name="Uacute" unicode="&#xda;" horiz-adv-x="682" 
d="M590 235q0 -106 -70.5 -173.5t-178.5 -67.5t-178 67.5t-70 173.5v477h76v-471q0 -81 47 -130t125 -49t125.5 49t47.5 130v471h76v-477zM466 934l-108 -153h-66l88 153h86z" />
    <glyph glyph-name="Ucircumflex" unicode="&#xdb;" horiz-adv-x="682" 
d="M590 235q0 -106 -70.5 -173.5t-178.5 -67.5t-178 67.5t-70 173.5v477h76v-471q0 -81 47 -130t125 -49t125.5 49t47.5 130v471h76v-477zM500 781h-69l-90 104l-90 -104h-69l125 153h68z" />
    <glyph glyph-name="Udieresis" unicode="&#xdc;" horiz-adv-x="682" 
d="M590 235q0 -106 -70.5 -173.5t-178.5 -67.5t-178 67.5t-70 173.5v477h76v-471q0 -81 47 -130t125 -49t125.5 49t47.5 130v471h76v-477zM483 789h-72v89h72v-89zM271 789h-72v89h72v-89z" />
    <glyph glyph-name="Yacute" unicode="&#xdd;" horiz-adv-x="515" 
d="M506 712l-210 -418v-294h-76v294l-212 418h82l168 -341l166 341h82zM382 934l-108 -153h-66l88 153h86z" />
    <glyph glyph-name="Thorn" unicode="&#xde;" horiz-adv-x="642" 
d="M588 359q0 -95 -61 -152t-159 -57h-189v-150h-76v712h76v-143h189q98 0 159 -57.5t61 -152.5zM512 359q0 69 -41 105t-110 36h-182v-282h182q69 0 110 36t41 105z" />
    <glyph glyph-name="germandbls" unicode="&#xdf;" horiz-adv-x="556" 
d="M484 141q0 -69 -39 -105t-103 -36h-54v62h40q35 0 59.5 20t24.5 67v169q0 41 -21 62t-59 21h-44v60h36q39 0 63.5 24.5t24.5 66.5q0 46 -31 75t-94 29q-124 0 -124 -135v-521h-73v524q0 93 54 144t147 51q85 0 136 -40q57 -44 57 -126q0 -78 -63 -119q36 -19 49.5 -45.5
t13.5 -74.5v-173z" />
    <glyph glyph-name="agrave" unicode="&#xe0;" horiz-adv-x="526" 
d="M441 0h-72v47q-53 -53 -142 -53q-95 0 -139 45q-37 38 -37 100q0 66 44.5 104t125.5 38h148v47q0 108 -126 108q-84 0 -124 -56l-49 45q32 41 74 58q38 15 100 15q197 0 197 -164v-334zM369 174v53h-138q-110 0 -110 -87q0 -84 113 -84q76 0 110 33q25 24 25 85zM301 594
h-66l-108 153h86z" />
    <glyph glyph-name="aacute" unicode="&#xe1;" horiz-adv-x="526" 
d="M441 0h-72v47q-53 -53 -142 -53q-95 0 -139 45q-37 38 -37 100q0 66 44.5 104t125.5 38h148v47q0 108 -126 108q-84 0 -124 -56l-49 45q32 41 74 58q38 15 100 15q197 0 197 -164v-334zM369 174v53h-138q-110 0 -110 -87q0 -84 113 -84q76 0 110 33q25 24 25 85zM377 747
l-108 -153h-66l88 153h86z" />
    <glyph glyph-name="acircumflex" unicode="&#xe2;" horiz-adv-x="526" 
d="M441 0h-72v47q-53 -53 -142 -53q-95 0 -139 45q-37 38 -37 100q0 66 44.5 104t125.5 38h148v47q0 108 -126 108q-84 0 -124 -56l-49 45q32 41 74 58q38 15 100 15q197 0 197 -164v-334zM369 174v53h-138q-110 0 -110 -87q0 -84 113 -84q76 0 110 33q25 24 25 85zM411 594
h-69l-90 104l-90 -104h-69l125 153h68z" />
    <glyph glyph-name="atilde" unicode="&#xe3;" horiz-adv-x="526" 
d="M441 0h-72v47q-53 -53 -142 -53q-95 0 -139 45q-37 38 -37 100q0 66 44.5 104t125.5 38h148v47q0 108 -126 108q-84 0 -124 -56l-49 45q32 41 74 58q38 15 100 15q197 0 197 -164v-334zM369 174v53h-138q-110 0 -110 -87q0 -84 113 -84q76 0 110 33q25 24 25 85zM409 659
q-51 -51 -95 -51q-31 0 -71 23q-36 21 -56 21q-27 0 -59 -32l-37 36q51 51 95 51q32 0 71 -24q33 -20 56 -20q27 0 59 32z" />
    <glyph glyph-name="adieresis" unicode="&#xe4;" horiz-adv-x="526" 
d="M441 0h-72v47q-53 -53 -142 -53q-95 0 -139 45q-37 38 -37 100q0 66 44.5 104t125.5 38h148v47q0 108 -126 108q-84 0 -124 -56l-49 45q32 41 74 58q38 15 100 15q197 0 197 -164v-334zM369 174v53h-138q-110 0 -110 -87q0 -84 113 -84q76 0 110 33q25 24 25 85zM394 602
h-72v89h72v-89zM182 602h-72v89h72v-89z" />
    <glyph glyph-name="aring" unicode="&#xe5;" horiz-adv-x="526" 
d="M441 0h-72v47q-53 -53 -142 -53q-95 0 -139 45q-37 38 -37 100q0 66 44.5 104t125.5 38h148v47q0 108 -126 108q-84 0 -124 -56l-49 45q32 41 74 58q38 15 100 15q197 0 197 -164v-334zM369 174v53h-138q-110 0 -110 -87q0 -84 113 -84q76 0 110 33q25 24 25 85zM370 687
q0 -49 -34.5 -84t-83.5 -35t-83.5 35t-34.5 84t34.5 83.5t83.5 34.5t83.5 -34.5t34.5 -83.5zM321 687q0 28 -20 48t-49 20t-49 -20t-20 -48t20.5 -48.5t48.5 -20.5q29 0 49 20.5t20 48.5z" />
    <glyph glyph-name="ae" unicode="&#xe6;" horiz-adv-x="835" 
d="M773 227h-333q0 -81 38 -125.5t108 -44.5q72 0 128 56l50 -43q-76 -76 -182 -76q-122 0 -175 85q-33 -47 -74 -66t-106 -19q-95 0 -139 45q-37 38 -37 100q0 66 44.5 104t125.5 38h148v47q0 108 -126 108q-84 0 -124 -56l-49 45q32 41 74 58q38 15 100 15q132 0 173 -77
q52 77 154 77q95 0 148.5 -64t53.5 -174v-33zM701 281q-3 52 -15 82q-31 74 -115 74t-115 -74q-14 -32 -16 -82h261zM369 174v53h-138q-110 0 -110 -87q0 -84 113 -84q76 0 110 33q25 24 25 85z" />
    <glyph glyph-name="ccedilla" unicode="&#xe7;" horiz-adv-x="494" 
d="M443 67q-38 -41 -74 -57t-88 -16q-97 0 -155 63q-63 67 -63 189t63 189q58 63 155 63q52 0 88 -16t74 -57l-49 -46q-50 55 -113 55q-74 0 -114 -56q-32 -45 -32 -132t32 -132q40 -56 114 -56q62 0 113 56zM313 -67l-59 -149h-79l71 149h67z" />
    <glyph glyph-name="egrave" unicode="&#xe8;" horiz-adv-x="530" 
d="M467 227h-332q0 -81 37.5 -125.5t107.5 -44.5q73 0 129 56l49 -43q-40 -40 -77 -57q-43 -19 -103 -19q-101 0 -156 61q-59 64 -59 191q0 119 54 185.5t148 66.5q95 0 148.5 -64t53.5 -174v-33zM395 281q-3 52 -15 82q-31 74 -115 74t-115 -74q-12 -30 -15 -82h260z
M317 594h-66l-108 153h86z" />
    <glyph glyph-name="eacute" unicode="&#xe9;" horiz-adv-x="530" 
d="M467 227h-332q0 -81 37.5 -125.5t107.5 -44.5q73 0 129 56l49 -43q-40 -40 -77 -57q-43 -19 -103 -19q-101 0 -156 61q-59 64 -59 191q0 119 54 185.5t148 66.5q95 0 148.5 -64t53.5 -174v-33zM395 281q-3 52 -15 82q-31 74 -115 74t-115 -74q-12 -30 -15 -82h260z
M393 747l-108 -153h-66l88 153h86z" />
    <glyph glyph-name="ecircumflex" unicode="&#xea;" horiz-adv-x="530" 
d="M467 227h-332q0 -81 37.5 -125.5t107.5 -44.5q73 0 129 56l49 -43q-40 -40 -77 -57q-43 -19 -103 -19q-101 0 -156 61q-59 64 -59 191q0 119 54 185.5t148 66.5q95 0 148.5 -64t53.5 -174v-33zM395 281q-3 52 -15 82q-31 74 -115 74t-115 -74q-12 -30 -15 -82h260z
M427 594h-69l-90 104l-90 -104h-69l125 153h68z" />
    <glyph glyph-name="edieresis" unicode="&#xeb;" horiz-adv-x="530" 
d="M467 227h-332q0 -81 37.5 -125.5t107.5 -44.5q73 0 129 56l49 -43q-40 -40 -77 -57q-43 -19 -103 -19q-101 0 -156 61q-59 64 -59 191q0 119 54 185.5t148 66.5q95 0 148.5 -64t53.5 -174v-33zM395 281q-3 52 -15 82q-31 74 -115 74t-115 -74q-12 -30 -15 -82h260z
M410 602h-72v89h72v-89zM198 602h-72v89h72v-89z" />
    <glyph glyph-name="igrave" unicode="&#xec;" horiz-adv-x="253" 
d="M162 0h-72v492h72v-492zM192 594h-66l-108 153h86z" />
    <glyph glyph-name="iacute" unicode="&#xed;" horiz-adv-x="253" 
d="M162 0h-72v492h72v-492zM240 747l-108 -153h-66l88 153h86z" />
    <glyph glyph-name="icircumflex" unicode="&#xee;" horiz-adv-x="253" 
d="M162 0h-72v492h72v-492zM285 594h-69l-90 104l-90 -104h-69l125 153h68z" />
    <glyph glyph-name="idieresis" unicode="&#xef;" horiz-adv-x="253" 
d="M162 0h-72v492h72v-492zM266 602h-72v89h72v-89zM54 602h-72v89h72v-89z" />
    <glyph glyph-name="eth" unicode="&#xf0;" horiz-adv-x="530" 
d="M465 244q0 -134 -60 -195q-54 -55 -140 -55t-140 55q-59 60 -59 195t59 195q47 48 122 52q47 3 75 -10l-58 99h-116v52h88l-47 82h75l47 -82h82v-52h-54l63 -111q37 -65 50 -110t13 -115zM393 244q0 112 -39 151q-36 36 -89 36q-52 0 -88 -36q-39 -39 -39 -151
q0 -111 39 -150q36 -36 88 -36q53 0 90.5 37.5t37.5 148.5z" />
    <glyph glyph-name="ntilde" unicode="&#xf1;" horiz-adv-x="562" 
d="M477 0h-72v303q0 131 -121 131q-57 0 -89.5 -34t-32.5 -97v-303h-72v492h72v-54q53 60 138 60q79 0 126 -46q51 -50 51 -137v-315zM442 659q-51 -51 -95 -51q-31 0 -71 23q-36 21 -56 21q-27 0 -59 -32l-37 36q51 51 95 51q32 0 71 -24q33 -20 56 -20q27 0 59 32z" />
    <glyph glyph-name="ograve" unicode="&#xf2;" horiz-adv-x="530" 
d="M466 246q0 -135 -60 -196q-55 -56 -141 -56t-141 56q-60 61 -60 196t60 196q55 56 141 56t141 -56q60 -61 60 -196zM394 246q0 113 -39 152q-36 36 -90 36q-53 0 -89 -36q-40 -40 -40 -152t40 -152q36 -36 89 -36q54 0 91.5 37.5t37.5 150.5zM304 594h-66l-108 153h86z
" />
    <glyph glyph-name="oacute" unicode="&#xf3;" horiz-adv-x="530" 
d="M466 246q0 -135 -60 -196q-55 -56 -141 -56t-141 56q-60 61 -60 196t60 196q55 56 141 56t141 -56q60 -61 60 -196zM394 246q0 113 -39 152q-36 36 -90 36q-53 0 -89 -36q-40 -40 -40 -152t40 -152q36 -36 89 -36q54 0 91.5 37.5t37.5 150.5zM390 747l-108 -153h-66
l88 153h86z" />
    <glyph glyph-name="ocircumflex" unicode="&#xf4;" horiz-adv-x="530" 
d="M466 246q0 -135 -60 -196q-55 -56 -141 -56t-141 56q-60 61 -60 196t60 196q55 56 141 56t141 -56q60 -61 60 -196zM394 246q0 113 -39 152q-36 36 -90 36q-53 0 -89 -36q-40 -40 -40 -152t40 -152q36 -36 89 -36q54 0 91.5 37.5t37.5 150.5zM424 594h-69l-90 104
l-90 -104h-69l125 153h68z" />
    <glyph glyph-name="otilde" unicode="&#xf5;" horiz-adv-x="530" 
d="M466 246q0 -135 -60 -196q-55 -56 -141 -56t-141 56q-60 61 -60 196t60 196q55 56 141 56t141 -56q60 -61 60 -196zM394 246q0 113 -39 152q-36 36 -90 36q-53 0 -89 -36q-40 -40 -40 -152t40 -152q36 -36 89 -36q54 0 91.5 37.5t37.5 150.5zM422 659q-51 -51 -95 -51
q-31 0 -71 23q-36 21 -56 21q-27 0 -59 -32l-37 36q51 51 95 51q32 0 71 -24q33 -20 56 -20q27 0 59 32z" />
    <glyph glyph-name="odieresis" unicode="&#xf6;" horiz-adv-x="530" 
d="M466 246q0 -135 -60 -196q-55 -56 -141 -56t-141 56q-60 61 -60 196t60 196q55 56 141 56t141 -56q60 -61 60 -196zM394 246q0 113 -39 152q-36 36 -90 36q-53 0 -89 -36q-40 -40 -40 -152t40 -152q36 -36 89 -36q54 0 91.5 37.5t37.5 150.5zM407 602h-72v89h72v-89z
M195 602h-72v89h72v-89z" />
    <glyph glyph-name="divide" unicode="&#xf7;" 
d="M304 404h-86v86h86v-86zM471 236h-420v67h420v-67zM304 49h-86v86h86v-86z" />
    <glyph glyph-name="oslash" unicode="&#xf8;" horiz-adv-x="530" 
d="M466 246q0 -135 -60 -196q-55 -56 -141 -56q-59 0 -105 27l-38 -65h-57l57 96q-58 60 -58 194q0 135 60 196q55 56 141 56q59 0 105 -27l39 65h56l-57 -96q58 -60 58 -194zM394 246q0 94 -24 133l-177 -299q31 -22 72 -22q54 0 91.5 37.5t37.5 150.5zM337 413
q-30 21 -72 21q-53 0 -89 -36q-40 -40 -40 -152q0 -92 25 -133z" />
    <glyph glyph-name="ugrave" unicode="&#xf9;" horiz-adv-x="563" 
d="M472 0h-71v55q-53 -61 -139 -61q-80 0 -127 46q-50 49 -50 138v314h72v-303q0 -131 120 -131q57 0 90 34t33 97v303h72v-492zM327 594h-66l-108 153h86z" />
    <glyph glyph-name="uacute" unicode="&#xfa;" horiz-adv-x="563" 
d="M472 0h-71v55q-53 -61 -139 -61q-80 0 -127 46q-50 49 -50 138v314h72v-303q0 -131 120 -131q57 0 90 34t33 97v303h72v-492zM403 747l-108 -153h-66l88 153h86z" />
    <glyph glyph-name="ucircumflex" unicode="&#xfb;" horiz-adv-x="563" 
d="M472 0h-71v55q-53 -61 -139 -61q-80 0 -127 46q-50 49 -50 138v314h72v-303q0 -131 120 -131q57 0 90 34t33 97v303h72v-492zM437 594h-69l-90 104l-90 -104h-69l125 153h68z" />
    <glyph glyph-name="udieresis" unicode="&#xfc;" horiz-adv-x="563" 
d="M472 0h-71v55q-53 -61 -139 -61q-80 0 -127 46q-50 49 -50 138v314h72v-303q0 -131 120 -131q57 0 90 34t33 97v303h72v-492zM420 602h-72v89h72v-89zM208 602h-72v89h72v-89z" />
    <glyph glyph-name="yacute" unicode="&#xfd;" horiz-adv-x="446" 
d="M436 492l-224 -611q-14 -38 -35 -58q-36 -34 -96 -34h-31v64h22q36 0 52 13t29 48l35 96l-177 482h78l135 -395l134 395h78zM348 747l-108 -153h-66l88 153h86z" />
    <glyph glyph-name="thorn" unicode="&#xfe;" horiz-adv-x="546" 
d="M481 246q0 -149 -60 -209q-43 -43 -120 -43q-89 0 -139 64v-278h-72v932h72v-277q49 63 139 63q77 0 120 -43q60 -60 60 -209zM409 246q0 87 -21 130q-29 58 -102 58t-102 -58q-22 -43 -22 -130t22 -130q29 -58 102 -58t102 58q21 43 21 130z" />
    <glyph glyph-name="ydieresis" unicode="&#xff;" horiz-adv-x="446" 
d="M436 492l-224 -611q-14 -38 -35 -58q-36 -34 -96 -34h-31v64h22q36 0 52 13t29 48l35 96l-177 482h78l135 -395l134 395h78zM365 602h-72v89h72v-89zM153 602h-72v89h72v-89z" />
    <glyph glyph-name="dotlessi" unicode="&#x131;" horiz-adv-x="253" 
d="M162 0h-72v492h72v-492z" />
    <glyph glyph-name="Lslash" unicode="&#x141;" horiz-adv-x="582" 
d="M552 0h-440v289l-73 -46v67l73 46v356h77v-308l154 98v-66l-154 -98v-270h363v-68z" />
    <glyph glyph-name="lslash" unicode="&#x142;" horiz-adv-x="315" 
d="M278 0h-52q-62 0 -94 36t-32 95v211l-63 -39v62l63 39v308h72v-264l81 50v-62l-81 -50v-252q0 -72 66 -72h40v-62z" />
    <glyph glyph-name="OE" unicode="&#x152;" horiz-adv-x="989" 
d="M933 0h-436v74q-65 -80 -173 -80q-107 0 -181 74q-46 46 -58 112q-9 46 -9 176t9 176q12 66 58 112q74 74 181 74q108 0 173 -80v74h434v-67h-358q0 -39 1 -127v-127h304v-64h-304v-130q-1 -90 -1 -130h360v-67zM497 356q0 118 -8 160q-9 50 -41 83q-50 51 -123 51
t-123 -51q-32 -33 -42 -83q-8 -43 -8 -160t8 -160q10 -50 42 -83q50 -51 123 -51t123 51q32 33 41 83q8 42 8 160z" />
    <glyph glyph-name="oe" unicode="&#x153;" horiz-adv-x="861" 
d="M798 227h-332q0 -81 37.5 -125.5t107.5 -44.5q73 0 129 56l49 -43q-40 -40 -77 -57q-43 -19 -103 -19q-124 0 -177 95q-49 -95 -167 -95q-86 0 -141 56q-60 61 -60 196t60 196q55 56 141 56q119 0 168 -95q51 95 163 95q95 0 148.5 -64t53.5 -174v-33zM727 281
q-2 50 -16 82q-31 74 -115 74t-115 -74q-12 -30 -15 -82h261zM394 246q0 113 -39 152q-36 36 -90 36q-53 0 -89 -36q-40 -40 -40 -152t40 -152q36 -36 89 -36q54 0 91.5 37.5t37.5 150.5z" />
    <glyph glyph-name="Scaron" unicode="&#x160;" horiz-adv-x="588" 
d="M532 196q0 -93 -67 -147.5t-179 -54.5q-150 0 -244 94l52 52q78 -78 194 -78q78 0 123 35t45 97q0 59 -34 89q-27 24 -93 34l-83 13q-185 29 -185 187q0 91 61.5 146t166.5 55q125 0 212 -78l-49 -49q-67 61 -166 61q-70 0 -110 -36t-40 -96q0 -54 33 -82.5t95 -38.5
l78 -12q87 -13 130 -50q60 -51 60 -141zM448 934l-125 -153h-68l-125 153h69l90 -105l90 105h69z" />
    <glyph glyph-name="scaron" unicode="&#x161;" horiz-adv-x="496" 
d="M445 144q0 -70 -54.5 -110t-145.5 -40q-128 0 -202 71l48 48q54 -57 153 -57q131 0 131 87q0 65 -82 72l-81 7q-147 13 -147 132q0 66 50.5 105t130.5 39q112 0 177 -53l-47 -47q-51 39 -131 39q-110 0 -110 -81q0 -64 86 -72l79 -7q145 -13 145 -133zM405 747l-125 -153
h-68l-125 153h69l90 -105l90 105h69z" />
    <glyph glyph-name="Ydieresis" unicode="&#x178;" horiz-adv-x="515" 
d="M506 712l-210 -418v-294h-76v294l-212 418h82l168 -341l166 341h82zM399 789h-72v89h72v-89zM187 789h-72v89h72v-89z" />
    <glyph glyph-name="Zcaron" unicode="&#x17d;" horiz-adv-x="556" 
d="M499 0h-442v72l356 572h-342v68h428v-64l-359 -580h359v-68zM443 934l-125 -153h-68l-125 153h69l90 -105l90 105h69z" />
    <glyph glyph-name="zcaron" unicode="&#x17e;" horiz-adv-x="459" 
d="M407 0h-357v62l274 366h-259v64h342v-61l-275 -367h275v-64zM395 747l-125 -153h-68l-125 153h69l90 -105l90 105h69z" />
    <glyph glyph-name="florin" unicode="&#x192;" horiz-adv-x="403" 
d="M373 652h-50q-67 0 -79 -72l-34 -196h105v-54h-115l-97 -550h-72l97 550h-98v54h108l34 198q10 58 48 93q40 39 101 39h52v-62z" />
    <glyph glyph-name="circumflex" unicode="&#x2c6;" horiz-adv-x="500" 
d="M409 594h-69l-90 104l-90 -104h-69l125 153h68z" />
    <glyph glyph-name="caron" unicode="&#x2c7;" horiz-adv-x="500" 
d="M409 747l-125 -153h-68l-125 153h69l90 -105l90 105h69z" />
    <glyph glyph-name="macron" unicode="&#xaf;" horiz-adv-x="500" 
d="M401 614h-302v57h302v-57z" />
    <glyph glyph-name="macron" unicode="&#x2c9;" horiz-adv-x="500" 
d="M401 614h-302v57h302v-57z" />
    <glyph glyph-name="breve" unicode="&#x2d8;" horiz-adv-x="500" 
d="M415 727q-12 -139 -163 -139q-155 0 -167 139h58q11 -82 109 -82q97 0 108 82h55z" />
    <glyph glyph-name="dotaccent" unicode="&#x2d9;" horiz-adv-x="500" 
d="M290 634h-80v74h80v-74z" />
    <glyph glyph-name="ring" unicode="&#x2da;" horiz-adv-x="500" 
d="M368 687q0 -49 -34.5 -84t-83.5 -35t-83.5 35t-34.5 84t34.5 83.5t83.5 34.5t83.5 -34.5t34.5 -83.5zM319 687q0 28 -20 48t-49 20t-49 -20t-20 -48t20.5 -48.5t48.5 -20.5q29 0 49 20.5t20 48.5z" />
    <glyph glyph-name="ogonek" unicode="&#x2db;" horiz-adv-x="500" 
d="M323 -216h-78l-59 149h66z" />
    <glyph glyph-name="tilde" unicode="&#x2dc;" horiz-adv-x="500" 
d="M407 659q-51 -51 -95 -51q-31 0 -71 23q-36 21 -56 21q-27 0 -59 -32l-37 36q51 51 95 51q32 0 71 -24q33 -20 56 -20q27 0 59 32z" />
    <glyph glyph-name="hungarumlaut" unicode="&#x2dd;" horiz-adv-x="500" 
d="M447 747l-109 -153h-65l89 153h85zM284 747l-108 -153h-66l89 153h85z" />
    <glyph glyph-name="Delta" unicode="&#x394;" horiz-adv-x="603" 
d="M594 0h-586l262 712h63zM495 66l-193 537l-194 -537h387z" />
    <glyph glyph-name="Delta" unicode="&#x2206;" horiz-adv-x="603" 
d="M594 0h-586l262 712h63zM495 66l-193 537l-194 -537h387z" />
    <glyph glyph-name="Omega" unicode="&#x3a9;" horiz-adv-x="650" 
d="M574 0h-195v64q64 30 92 76q26 42 26 214q0 118 -8 162q-9 51 -41 83q-50 51 -123 51t-123 -51q-32 -32 -42 -83q-8 -45 -8 -162q0 -171 27 -214q28 -46 92 -76v-64h-195v67h82q-35 29 -54.5 66.5t-24.5 101.5q-3 33 -3 121q0 131 8 176q13 66 59 112q74 74 182 74
t182 -74q46 -46 59 -112q8 -45 8 -176q0 -88 -3 -121q-5 -64 -24 -101t-56 -67h83v-67z" />
    <glyph glyph-name="Omega" unicode="&#x2126;" horiz-adv-x="650" 
d="M574 0h-195v64q64 30 92 76q26 42 26 214q0 118 -8 162q-9 51 -41 83q-50 51 -123 51t-123 -51q-32 -32 -42 -83q-8 -45 -8 -162q0 -171 27 -214q28 -46 92 -76v-64h-195v67h82q-35 29 -54.5 66.5t-24.5 101.5q-3 33 -3 121q0 131 8 176q13 66 59 112q74 74 182 74
t182 -74q46 -46 59 -112q8 -45 8 -176q0 -88 -3 -121q-5 -64 -24 -101t-56 -67h83v-67z" />
    <glyph glyph-name="mu" unicode="&#xb5;" horiz-adv-x="561" 
d="M471 0h-72v55q-53 -61 -138 -61q-66 0 -106 37v-251h-72v712h72v-303q0 -131 121 -131q57 0 90 34t33 97v303h72v-492z" />
    <glyph glyph-name="mu" unicode="&#x3bc;" horiz-adv-x="561" 
d="M471 0h-72v55q-53 -61 -138 -61q-66 0 -106 37v-251h-72v712h72v-303q0 -131 121 -131q57 0 90 34t33 97v303h72v-492z" />
    <glyph glyph-name="pi" unicode="&#x3c0;" horiz-adv-x="591" 
d="M490 0h-69v427h-250v-427h-70v492h389v-492z" />
    <glyph glyph-name="endash" unicode="&#x2013;" 
d="M470 236h-418v67h418v-67z" />
    <glyph glyph-name="emdash" unicode="&#x2014;" horiz-adv-x="914" 
d="M838 236h-762v68h762v-68z" />
    <glyph glyph-name="quoteleft" unicode="&#x2018;" horiz-adv-x="263" 
d="M175 628h-87v84l87 79v-163z" />
    <glyph glyph-name="quoteright" unicode="&#x2019;" horiz-adv-x="263" 
d="M175 628l-87 -79v163h87v-84z" />
    <glyph glyph-name="quotesinglbase" unicode="&#x201a;" horiz-adv-x="263" 
d="M175 0l-87 -79v163h87v-84z" />
    <glyph glyph-name="quotedblleft" unicode="&#x201c;" horiz-adv-x="434" 
d="M346 628h-88v84l88 79v-163zM175 628h-87v84l87 79v-163z" />
    <glyph glyph-name="quotedblright" unicode="&#x201d;" horiz-adv-x="434" 
d="M346 628l-88 -79v163h88v-84zM175 628l-87 -79v163h87v-84z" />
    <glyph glyph-name="quotedblbase" unicode="&#x201e;" horiz-adv-x="434" 
d="M346 0l-88 -79v163h88v-84zM175 0l-87 -79v163h87v-84z" />
    <glyph glyph-name="dagger" unicode="&#x2020;" horiz-adv-x="605" 
d="M531 445h-194v-445h-72v445h-191v64h191v203h72v-203h194v-64z" />
    <glyph glyph-name="daggerdbl" unicode="&#x2021;" horiz-adv-x="605" 
d="M531 -16h-194v-204h-72v204h-191v64h191v397h-191v64h191v203h72v-203h194v-64h-194v-397h194v-64z" />
    <glyph glyph-name="bullet" unicode="&#x2022;" horiz-adv-x="532" 
d="M429 334q0 -67 -47.5 -115t-115.5 -48q-67 0 -115 48t-48 115q0 68 48 115.5t115 47.5q68 0 115.5 -47.5t47.5 -115.5z" />
    <glyph glyph-name="ellipsis" unicode="&#x2026;" horiz-adv-x="757" 
d="M669 0h-92v92h92v-92zM424 0h-92v92h92v-92zM180 0h-92v92h92v-92z" />
    <glyph glyph-name="perthousand" unicode="&#x2030;" horiz-adv-x="1179" 
d="M1115 128q0 -61 -38 -98t-97 -37t-97 37t-38 98v105q0 61 38 98t97 37t97 -37t38 -98v-105zM769 128q0 -61 -38 -98t-97 -37t-97 37t-38 98v105q0 61 38 98t97 37t97 -37t38 -98v-105zM614 712l-334 -712h-60l334 712h60zM335 479q0 -60 -38 -97t-97 -37t-97 37t-38 97
v105q0 61 38 98t97 37t97 -37t38 -98v-105zM1058 130v101q0 87 -78 87t-78 -87v-101q0 -87 78 -87t78 87zM712 130v101q0 87 -78 87t-78 -87v-101q0 -87 78 -87t78 87zM278 481v101q0 87 -78 87t-78 -87v-101q0 -86 78 -86t78 86z" />
    <glyph glyph-name="guilsinglleft" unicode="&#x2039;" horiz-adv-x="328" 
d="M250 58l-210 210l210 210v-90l-120 -120l120 -121v-89z" />
    <glyph glyph-name="guilsinglright" unicode="&#x203a;" horiz-adv-x="328" 
d="M288 268l-210 -210v89l121 121l-121 120v90z" />
    <glyph glyph-name="fraction" unicode="&#x2044;" horiz-adv-x="185" 
d="M289 712l-333 -712h-60l333 712h60z" />
    <glyph glyph-name="trademark" unicode="&#x2122;" horiz-adv-x="839" 
d="M781 285h-57v308l-102 -202h-56l-102 202v-308h-58v427h58l130 -259l130 259h57v-427zM331 659h-119v-374h-58v374h-118v53h295v-53z" />
    <glyph glyph-name="partialdiff" unicode="&#x2202;" horiz-adv-x="544" 
d="M453 244q0 -135 -57 -195q-52 -55 -136 -55q-85 0 -137 55q-57 60 -57 195q0 139 57 198q52 53 130 53q81 0 128 -58v70q0 64 -31 104q-36 45 -104 45q-40 0 -67 -13q-20 -10 -51 -37l-46 46q40 36 76 51t90 15q98 0 153 -60q52 -58 52 -156v-258zM381 244q0 112 -37 151
q-34 36 -84 36q-51 0 -85 -36q-37 -39 -37 -151q0 -111 37 -150q34 -36 85 -36q50 0 85.5 37.5t35.5 148.5z" />
    <glyph glyph-name="product" unicode="&#x220f;" horiz-adv-x="696" 
d="M593 -220h-76v912h-338v-912h-76v980h490v-980z" />
    <glyph glyph-name="summation" unicode="&#x2211;" horiz-adv-x="551" 
d="M500 -220h-443v65l202 438l-201 413v64h441v-68h-353l180 -375v-69l-182 -400h356v-68z" />
    <glyph glyph-name="minus" unicode="&#xad;" 
d="M470 236h-418v67h418v-67z" />
    <glyph glyph-name="minus" unicode="&#x2212;" 
d="M470 236h-418v67h418v-67z" />
    <glyph glyph-name="periodcentered" unicode="&#xb7;" horiz-adv-x="270" 
d="M182 223h-94v94h94v-94z" />
    <glyph glyph-name="periodcentered" unicode="&#x2219;" horiz-adv-x="270" 
d="M182 223h-94v94h94v-94z" />
    <glyph glyph-name="radical" unicode="&#x221a;" horiz-adv-x="562" 
d="M532 644h-89l-211 -644h-61l-163 492h79l115 -356l184 576h146v-68z" />
    <glyph glyph-name="infinity" unicode="&#x221e;" horiz-adv-x="808" 
d="M740 267q0 -69 -43.5 -114t-114.5 -45q-51 0 -92 24.5t-86 79.5q-86 -105 -177 -105q-71 0 -115.5 45.5t-44.5 114.5t44.5 114.5t115.5 45.5q90 0 177 -106q46 56 86.5 81t91.5 25q71 0 114.5 -45.5t43.5 -114.5zM671 266q0 42 -25.5 67.5t-66.5 25.5q-34 0 -66 -25
q-24 -19 -64 -68q40 -49 64 -67q32 -26 66 -26q41 0 66.5 25.5t25.5 67.5zM358 266q-41 50 -63 68q-32 26 -66 26q-41 0 -67 -26t-26 -68t26 -67.5t67 -25.5q34 0 66 26q23 18 63 67z" />
    <glyph glyph-name="integral" unicode="&#x222b;" horiz-adv-x="372" 
d="M334 653h-38q-73 0 -73 -77v-654q0 -64 -36 -102t-100 -38h-50v62h39q73 0 73 77v654q0 64 36 102t100 38h49v-62z" />
    <glyph glyph-name="approxequal" unicode="&#x2248;" horiz-adv-x="539" 
d="M490 366q-41 -41 -67.5 -54.5t-61.5 -13.5q-36 0 -106 32q-51 23 -78 23q-40 0 -84 -44l-44 44q41 41 69 56q25 13 60 13t105 -32q51 -23 78 -23q40 0 84 44zM490 189q-41 -41 -67.5 -54.5t-61.5 -13.5q-38 0 -106 31q-53 24 -77 24q-39 0 -84 -45l-45 45q41 41 69 55
q25 13 60 13q38 0 106 -31q53 -24 77 -24q39 0 84 45z" />
    <glyph glyph-name="approxequal" unicode="&#x22f2;" horiz-adv-x="539" 
d="M490 366q-41 -41 -67.5 -54.5t-61.5 -13.5q-36 0 -106 32q-51 23 -78 23q-40 0 -84 -44l-44 44q41 41 69 56q25 13 60 13t105 -32q51 -23 78 -23q40 0 84 44zM490 189q-41 -41 -67.5 -54.5t-61.5 -13.5q-38 0 -106 31q-53 24 -77 24q-39 0 -84 -45l-45 45q41 41 69 55
q25 13 60 13q38 0 106 -31q53 -24 77 -24q39 0 84 45z" />
    <glyph glyph-name="notequal" unicode="&#x2260;" horiz-adv-x="537" 
d="M485 151h-284l-103 -111l-46 40l67 71h-67v66h126l99 103h-225v67h284l104 111l45 -41l-67 -70h67v-67h-126l-98 -103h224v-66z" />
    <glyph glyph-name="lessequal" unicode="&#x2264;" horiz-adv-x="1027" 
d="M862 -31l-49 -49l-557 558v-516l-67 67v564h565l66 -67l-515 1z" />
    <glyph glyph-name="greaterequal" unicode="&#x2265;" horiz-adv-x="1027" 
d="M838 29l-67 -67v516l-557 -558l-49 49l557 558l-515 -1l66 67h565v-564z" />
    <glyph glyph-name="lozenge" unicode="&#x25ca;" horiz-adv-x="649" 
d="M582 352l-257 -364l-258 364l258 364zM501 352l-176 253l-177 -253l177 -255z" />
    <glyph glyph-name="fi" unicode="&#xf001;" horiz-adv-x="562" 
d="M476 639h-82v74h82v-74zM471 0h-72v489h72v-489zM282 434h-105v-434h-72v434h-63v55h63v93q0 58 31 93q34 39 94 39h52v-62h-39q-66 0 -66 -72v-91h105v-55z" />
    <glyph glyph-name="fl" unicode="&#xf002;" horiz-adv-x="602" 
d="M573 0h-52q-62 0 -94 36t-32 95v581h72v-578q0 -72 66 -72h40v-62zM282 434h-105v-434h-72v434h-63v55h63v93q0 58 31 93q34 39 94 39h52v-62h-39q-66 0 -66 -72v-91h105v-55z" />
    <glyph glyph-name="nonbreakingspace" unicode="&#xa0;" horiz-adv-x="249" 
 />
  </font>
</defs>
</svg>
